#TITLE:Kind Lady;
#SUBTITLE:(Future Trance Mix);
#ARTIST:Okuyatos (Remixed by System S.F.);
#TITLETRANSLIT:;
#SUBTITLETRANSLIT:;
#ARTISTTRANSLIT:;
#CREDIT:;
#BANNER:Kind Lady FTM-banner.png;
#BACKGROUND:Kind Lady FTM-bg.png;
#LYRICSPATH:;
#CDTITLE:;
#MUSIC:Kind Lady FTM.mp3;
#MUSICLENGTH:88.999;
#OFFSET:-0.060;
#SAMPLESTART:42.245;
#SAMPLELENGTH:12.000;
#SELECTABLE:YES;
#BPMS:0.000=142.000;
#STOPS:;
#BGCHANGES:8.000=clouds=1.000=1=0=1
;
#FIRSTBEAT:8.000;

#LASTBEAT:201.000;

#SONGFILENAME:Songs/ERICth The 3rd/Kind Lady FTM/Kind Lady FTM.sm;

#HASMUSIC:1;

#HASBANNER:1;


//---------------dance-single - MANIAC----------------
#NOTES:
     dance-single:
     MANIAC:
     hard:
     7:
     0.474,0.478,0.225,0.124,0.034,264.000,20.000,11.000,0.000,0.000:

0000
0000
0000
0000
,
0000
0000
0000
0000
,
1000
0000
0001
0000
,
0100
0000
0001
0000
,
1000
0010
0100
0000
0001
0010
0100
0000
,
1000
0010
0100
0000
0001
0010
0100
0000
,
1000
0001
0010
0000
0001
1000
0010
0000
,
1000
0001
0010
0000
0001
1000
0010
0000
,
2002
0000
0000
3003
,
0010
0100
0001
1000
0100
0010
0001
0000
,
0100
0001
1000
0100
1000
0010
0001
0000
,
0010
0100
0001
0100
1000
0100
0010
0000
,
0001
0000
0000
0010
0000
0000
0200
0000
0000
0000
0000
0000
0310
0000
0000
0000
,
0001
0100
0010
1000
0010
0001
0100
0000
,
0100
1000
0001
0010
0001
1000
0100
0000
,
0001
0100
0010
0100
1000
0100
0001
0000
,
1000
0000
0000
0010
0000
0000
0200
0000
0000
0000
0000
0000
0300
0000
0000
0000
,
0010
0001
1000
0100
0010
0100
1000
0000
,
0100
0010
0100
1000
0001
1000
0010
0000
,
0100
1000
0010
0010
0001
0100
0010
0000
,
0010
0000
0000
0001
0000
0000
2000
0000
0000
0000
0000
0000
3000
0000
0000
0000
,
0010
0100
0001
1000
0100
0010
0001
0000
,
0100
0001
1000
0100
1000
0010
0001
0000
,
0010
0100
0001
0100
1000
0100
0010
0000
,
0001
0000
0000
0010
0000
0000
0200
0000
0000
0000
0000
0000
0310
0000
0000
0000
,
1001
0101
1100
1001
,
0001
1000
0001
0000
1000
0100
1000
0000
,
1001
0011
1010
1001
,
0001
0010
0001
0000
1000
0001
1000
0000
,
1000
0100
0010
0001
,
1000
0100
0010
0001
0010
0100
1000
0000
,
0001
0100
0010
1000
,
0001
0100
0010
1000
0010
0100
0001
0000
,
0000
1100
0000
0101
0000
1100
0000
0101
,
0001
1000
0100
0010
0100
1000
0001
0000
,
1000
0010
0100
0010
0001
0010
1000
0100
,
0001
0100
1000
0001
1000
0010
0100
0001
,
0000
1001
0000
0110
0000
1001
0000
1000
,
1100
0000
0000
0110
0000
0000
0022
0000
0000
0000
0033
0000
0000
0000
0000
0000
,
0010
1000
0001
0010
0001
1000
0010
1000
,
0010
0000
0000
0001
0000
0000
0020
0000
0000
0000
0000
0000
0030
0000
0000
0000
,
0010
1000
0100
0000
0010
1000
0100
0000
,
0010
0001
0100
0000
0010
0001
0100
0000
,
0001
1000
0100
0000
0001
1000
0010
0000
,
1000
0001
0100
0000
1000
0001
0010
0000
,
1000
0100
0100
0000
0001
0100
0100
0000
,
0001
1000
1000
0000
0100
0010
0010
0000
,
1000
0100
0010
0000
0001
0100
0010
0000
,
0010
1000
0001
0100
0010
0001
0010
0000
,
0220
0000
0000
0000
,
0330
0000
0000
0000
,;

//---------------dance-single - ANOTHER----------------
#NOTES:
     dance-single:
     ANOTHER:
     medium:
     4:
     0.271,0.337,0.011,0.101,0.000,159.000,1.000,9.000,0.000,0.000:

0000
0000
0000
0000
,
0000
0000
0000
0000
,
0020
0000
0000
0000
,
0230
0000
0000
0000
,
2300
0000
0000
0000
,
3200
0000
0000
0000
,
0320
0000
0000
0000
,
0032
0000
0000
0000
,
0000
0000
0000
0003
,
1001
0000
0100
0000
,
0010
0000
1000
0000
,
0100
0000
0010
0000
,
0100
1000
0010
0000
,
0001
0000
0100
0000
,
1000
0000
0010
0000
,
1000
0000
0001
0000
,
0100
0000
0010
0000
1000
0000
0001
0010
,
0001
1000
0000
0100
,
0000
0000
0010
0000
0000
0000
0001
1000
,
0010
0000
0001
0000
,
1000
0000
0000
0000
0100
0000
0010
1000
,
0100
0000
0100
0000
,
0001
0000
1000
0000
,
0010
0000
0100
0000
,
0001
1000
0010
0100
0001
0000
0000
0000
,
0001
0001
1000
1000
,
0100
0100
1000
1000
,
0001
0001
0010
0010
,
0001
0000
0001
0000
1000
0000
1000
0001
,
1000
0010
0100
0001
,
1000
0000
0100
0000
0010
0000
0100
1000
,
0001
0000
0100
0000
0010
0000
1000
0001
,
0100
0000
0001
1000
0010
0000
0010
1000
,
0001
0100
0100
0010
,
0010
0001
0001
1000
,
1000
0010
0100
0010
,
0001
0000
1000
0000
0010
0000
0100
0001
,
1000
0100
0010
0001
,
1000
0010
0100
0010
,
0100
0001
1000
0100
,
1000
0000
0001
0000
0100
0010
0100
0001
,
1000
0100
0010
0001
,
2000
0000
0001
0000
0001
0000
0001
3000
,
0100
0010
0001
1000
,
0010
0100
0001
1000
0001
0000
0001
0000
,
0002
1000
0010
0103
,
1000
1000
1000
0100
,
0010
0000
0001
0000
1000
0010
0100
0000
,
0001
0000
1000
0000
0100
0010
0001
1000
,
0200
0000
0000
0000
,
0300
0000
0000
0000
;

//---------------dance-single - BASIC----------------
#NOTES:
     dance-single:
     BASIC:
     easy:
     2:
     0.180,0.226,0.000,0.146,0.000,99.000,0.000,13.000,0.000,0.000:

0000
0000
0000
0000
,
0000
0000
0000
0000
,
2000
0000
0000
0000
,
0000
0000
0000
0000
,
3002
0000
0000
0000
,
0000
0000
0000
0000
,
0003
0000
0100
0000
,
0100
0000
0100
0100
,
0200
0000
0000
0000
,
0310
0000
0000
0000
,
0010
0000
0000
0000
,
1000
0000
0000
0000
,
0001
0000
1000
0000
,
0001
0100
0000
0000
,
0100
0001
0000
0000
,
0010
1000
0000
0000
,
1000
0010
0000
0000
,
0010
0100
0000
0000
,
0100
0001
0000
0000
,
0001
1000
0000
0000
,
1000
0010
0000
0000
,
0010
0100
0000
0000
,
0100
1000
0000
0000
,
0001
1000
0000
0000
,
0100
0100
0100
0000
,
0002
0000
1003
0000
,
0200
0000
0310
0000
,
2000
0000
3001
0000
,
0020
0000
0130
0000
,
2000
0000
3010
0000
,
0002
0000
0103
0000
,
0020
0000
1030
0000
,
0020
0000
0130
0000
,
0001
1000
0100
0000
,
0001
0100
0010
0000
,
1000
0100
0100
0000
,
0001
0100
0100
0000
,
0010
1000
0001
0000
,
0100
0001
0010
0000
,
0100
0001
0010
1000
,
0100
0001
0010
0000
,
0010
0000
0100
0000
,
0001
0000
1000
0000
,
0010
0000
0100
0000
,
0001
0000
1000
0000
,
0010
0000
0100
0000
,
0001
0000
1000
0000
,
0100
0010
0100
0010
,
0200
0010
0010
0010
,
0020
0000
0000
0000
,
0000
0330
0000
0000
,;
